Welcome, Guest
Username Password: Remember me
  • Page:
  • 1

TOPIC: Phone to computer screen recording

Phone to computer screen recording 1 week, 4 days ago #218637

  • SurrealSeal
  • OFFLINE
  • Fresh Boarder
  • Posts: 6
  • 1 week, 4 days ago
Hi, I have a question
When I record a horizontal screen recording on my phone and upload it to Lightworks, it becomes vertical, however when I play it using Windows Video Player it is horizontal. If I use 3D DVE to rotate and enlarge it, the quality drops. How do I fix this problem?
Thanks

Re: Phone to computer screen recording 1 week, 4 days ago #218638

  • hugly
  • OFFLINE
  • Platinum Boarder
  • Posts: 24231
  • 1 week, 4 days ago
Hello,

Could you post a Mediainfo report of the screen recording, please? Here you'll find a description how to create and post Mediainfo reports on Windows:

www.lwks.com/index.php?option=com_kunena&func=view&catid=6&id=217816&Itemid=81#217824
It's better to travel well than to arrive...

Re: Phone to computer screen recording 1 week, 4 days ago #218641

  • briandrys
  • Moderator
    Pro User
  • OFFLINE
  • Moderator
  • Posts: 9629
  • 1 week, 4 days ago
I would upgrade to V2020.1, which is now released, this automatically orientates phone footage.

Re: Phone to computer screen recording 1 week, 3 days ago #218651

  • SurrealSeal
  • OFFLINE
  • Fresh Boarder
  • Posts: 6
  • 1 week, 3 days ago
Format : MPEG-4
Format profile : Base Media / Version 2
Codec ID : mp42 (isom/mp41/mp42)
File size : 414 MiB
Duration : 5 min 1 s
Overall bit rate : 11.5 Mb/s
Performer : ReplayKitRecording
Encoded date : UTC 2020-05-22 03:47:17
Tagged date : UTC 2020-05-22 03:47:37

Video
ID : 2
Format : AVC
Format/Info : Advanced Video Codec
Format profile : High@L4
Format settings : CABAC / 2 Ref Frames
Format settings, CABAC : Yes
Format settings, Reference frames : 2 frames
Format settings, GOP : M=1, N=30
Codec ID : avc1
Codec ID/Info : Advanced Video Coding
Duration : 5 min 1 s
Source duration : 5 min 2 s
Bit rate : 11.4 Mb/s
Width : 750 pixels
Height : 1 334 pixels
Display aspect ratio : 0.562
Rotation : 270°
Frame rate mode : Variable
Frame rate : 56.873 FPS
Minimum frame rate : 1.333 FPS
Maximum frame rate : 60.000 FPS
Color space : YUV
Chroma subsampling : 4:2:0
Bit depth : 8 bits
Scan type : Progressive
Bits/(Pixel*Frame) : 0.200
Stream size : 409 MiB (99%)
Source stream size : 409 MiB (99%)
Title : Core Media Video
Encoded date : UTC 2020-05-22 03:47:17
Tagged date : UTC 2020-05-22 03:47:37
Color range : Limited
colour_range_Original : Full
Color primaries : BT.709
Transfer characteristics : sRGB/sYCC
Matrix coefficients : BT.709
Codec configuration box : avcC

Audio
ID : 1
Format : AAC LC
Format/Info : Advanced Audio Codec Low Complexity
Codec ID : mp4a-40-2
Duration : 5 min 1 s
Source duration : 5 min 1 s
Bit rate mode : Constant
Bit rate : 128 kb/s
Channel(s) : 2 channels
Channel layout : L R
Sampling rate : 44.1 kHz
Frame rate : 43.066 FPS (1024 SPF)
Compression mode : Lossy
Stream size : 4.42 MiB (1%)
Source stream size : 4.42 MiB (1%)
Title : Core Media Audio
Encoded date : UTC 2020-05-22 03:47:17
Tagged date : UTC 2020-05-22 03:47:37

Re: Phone to computer screen recording 1 week, 3 days ago #218652

  • SurrealSeal
  • OFFLINE
  • Fresh Boarder
  • Posts: 6
  • 1 week, 3 days ago
briandrys wrote:
I would upgrade to V2020.1, which is now released, this automatically orientates phone footage.

ok ill try that

Re: Phone to computer screen recording 1 week, 3 days ago #218654

  • SurrealSeal
  • OFFLINE
  • Fresh Boarder
  • Posts: 6
  • 1 week, 3 days ago
SurrealSeal wrote:
briandrys wrote:
I would upgrade to V2020.1, which is now released, this automatically orientates phone footage.

ok ill try that

Oh it worked, thank you so much!

Re: Phone to computer screen recording 1 week, 3 days ago #218657

  • briandrys
  • Moderator
    Pro User
  • OFFLINE
  • Moderator
  • Posts: 9629
  • 1 week, 3 days ago
Your video has a non standard target frame rate:

Frame rate : 56.873 FPS


If you have further issues with this video, you may have to convert to a standard one using Handbrake. You'll find suitable settings here: www.lwks.com/index.php?option=com_kunena&func=view&catid=23&id=166802&Itemid=81

Re: Phone to computer screen recording 1 week, 3 days ago #218658

  • SurrealSeal
  • OFFLINE
  • Fresh Boarder
  • Posts: 6
  • 1 week, 3 days ago
briandrys wrote:
Your video has a non standard target frame rate:

Frame rate : 56.873 FPS


If you have further issues with this video, you may have to convert to a standard one using Handbrake. You'll find suitable settings here: www.lwks.com/index.php?option=com_kunena&func=view&catid=23&id=166802&Itemid=81


Thanks, I'll keep this in mind if I face any other problems!
  • Page:
  • 1
Time to create page: 0.41 seconds
Scroll To Top