Welcome, Guest
Username Password: Remember me
  • Page:
  • 1

TOPIC: Canon videos unable to import

Canon videos unable to import 1 month, 3 weeks ago #222794

  • silverhaar
  • OFFLINE
  • Fresh Boarder
  • Posts: 3
  • 1 month, 3 weeks ago
Hi folks, am just starting out and have been importing some videos ok but trying today this came up: check frame rate and audio sample rate.
Can you advise what I'm not doing/doing wrong please?

Re: Canon videos unable to import 1 month, 3 weeks ago #222799

  • briandrys
  • Moderator
    Pro User
  • OFFLINE
  • Moderator
  • Posts: 10199
  • 1 month, 3 weeks ago
Welcome to the forum.

Please could you follow the directions in this sticky, so that users can see the technical details of your videos. www.lwks.com/index.php?option=com_kunena&func=view&catid=23&id=66072&Itemid=81

Re: Canon videos unable to import 1 month, 3 weeks ago #222801

  • silverhaar
  • OFFLINE
  • Fresh Boarder
  • Posts: 3
  • 1 month, 3 weeks ago
General
Complete name : MVI_6624.MP4
Format : MPEG-4
Format profile : Base Media / Version 2
Codec ID : mp42 (mp42/avc1/CAEP)
File size : 261 MiB
Duration : 1 min 13 s
Overall bit rate : 29.9 Mb/s
Encoded date : UTC 2020-07-24 11:42:29
Tagged date : UTC 2020-07-24 11:42:29

Video
ID : 1
Format : AVC
Format/Info : Advanced Video Codec
Format profile : High@L4.1
Format settings : CABAC / 2 Ref Frames
Format settings, CABAC : Yes
Format settings, Reference frames : 2 frames
Format settings, GOP : M=3, N=12
Codec ID : avc1
Codec ID/Info : Advanced Video Coding
Duration : 1 min 13 s
Bit rate : 29.7 Mb/s
Width : 1 920 pixels
Height : 1 080 pixels
Display aspect ratio : 16:9
Frame rate mode : Constant
Frame rate : 25.000 FPS
Color space : YUV
Chroma subsampling : 4:2:0
Bit depth : 8 bits
Scan type : Progressive
Bits/(Pixel*Frame) : 0.572
Stream size : 259 MiB (99%)
Language : English
Encoded date : UTC 2020-07-24 11:42:29
Tagged date : UTC 2020-07-24 11:42:29
Color range : Full
Color primaries : BT.709
Transfer characteristics : BT.709
Matrix coefficients : BT.709
Codec configuration box : avcC

Audio
ID : 2
Format : AAC LC
Format/Info : Advanced Audio Codec Low Complexity
Codec ID : mp4a-40-2
Duration : 1 min 13 s
Bit rate mode : Constant
Bit rate : 256 kb/s
Channel(s) : 2 channels
Channel layout : L R
Sampling rate : 48.0 kHz
Frame rate : 46.875 FPS (1024 SPF)
Compression mode : Lossy
Stream size : 2.21 MiB (1%)
Language : English
Encoded date : UTC 2020-07-24 11:42:29
Tagged date : UTC 2020-07-24 11:42:29

Many thanks

Re: Canon videos unable to import 1 month, 3 weeks ago #222803

  • hugly
  • OFFLINE
  • Platinum Boarder
  • Posts: 25899
  • 1 month, 3 weeks ago
The message means that the project you're using isn't compatible with 25 fps footage, which is true for 30 and 60 fps projects.

To reveal the frame rate of your project, click on 'Project' upper left hand side and check 'Details.Frame rate'.

Now, you have two choices, either start again and use a 24 fps project, which allows mixing 25/50 and 30/60 fps or convert the 25 fps footage to your current project frame rate with third party software, e.g. Handbrake.
It's better to travel well than to arrive...
Last Edit: 1 month, 3 weeks ago by hugly.

Re: Canon videos unable to import 1 month, 3 weeks ago #222804

  • silverhaar
  • OFFLINE
  • Fresh Boarder
  • Posts: 3
  • 1 month, 3 weeks ago
Many thanks I have started again - learning curves +++
  • Page:
  • 1
Time to create page: 0.33 seconds
Scroll To Top