Welcome, Guest
Username Password: Remember me
  • Page:
  • 1

TOPIC: My video that I shot on my Iphone XR in 4K, 60FPS isn't displaying my video content

My video that I shot on my Iphone XR in 4K, 60FPS isn't displaying my video content 2 weeks, 2 days ago #214370

  • Ogbamabobs
  • OFFLINE
  • Fresh Boarder
  • Posts: 1
  • 2 weeks, 2 days ago
I ham very new to Light works and editing as a whole. I am having difficulties uploading my videos to the platform. It is only uploading the sound content.

General
Complete name : C:\Users\bobby\Videos\Captures\Video Mar 23, 6 42 14 PM.mov
Format : MPEG-4
Format profile : QuickTime
Codec ID : qt 0000.00 (qt )
File size : 184 MiB
Duration : 24 s 475 ms
Overall bit rate mode : Variable
Overall bit rate : 63.1 Mb/s
Encoded date : UTC 2020-03-23 22:42:14
Tagged date : UTC 2020-03-23 22:42:39
Writing library : Apple QuickTime
com.apple.quicktime.make : Apple
com.apple.quicktime.model : iPhone XR
com.apple.quicktime.software : 13.3.1
com.apple.quicktime.creationdate : 2020-03-23T18:42:14-0400

Video
ID : 1
Format : HEVC
Format/Info : High Efficiency Video Coding
Format profile : Main@L5.1@High
Codec ID : hvc1
Codec ID/Info : High Efficiency Video Coding
Duration : 24 s 475 ms
Bit rate : 62.8 Mb/s
Width : 3 840 pixels
Height : 2 160 pixels
Display aspect ratio : 16:9
Rotation : 90°
Frame rate mode : Variable
Frame rate : 60.000 FPS
Minimum frame rate : 60.000 FPS
Maximum frame rate : 66.667 FPS
Color space : YUV
Chroma subsampling : 4:2:0
Bit depth : 8 bits
Bits/(Pixel*Frame) : 0.126
Stream size : 183 MiB (100%)
Title : Core Media Video
Encoded date : UTC 2020-03-23 22:42:14
Tagged date : UTC 2020-03-23 22:42:39
Color range : Limited
Color primaries : BT.709
Transfer characteristics : BT.709
Matrix coefficients : BT.709
Codec configuration box : hvcC

Audio
ID : 2
Format : AAC LC
Format/Info : Advanced Audio Codec Low Complexity
Codec ID : mp4a-40-2
Duration : 24 s 475 ms
Source duration : 24 s 543 ms
Bit rate mode : Variable
Bit rate : 185 kb/s
Channel(s) : 2 channels
Channel layout : L R
Sampling rate : 44.1 kHz
Frame rate : 43.066 FPS (1024 SPF)
Compression mode : Lossy
Stream size : 554 KiB (0%)
Source stream size : 555 KiB (0%)
Title : Core Media Audio
Encoded date : UTC 2020-03-23 22:42:14
Tagged date : UTC 2020-03-23 22:42:39

Other #1
Type : meta
Duration : 24 s 475 ms
Bit rate mode : Variable

Other #2
Type : meta
Duration : 24 s 475 ms
Bit rate mode : Constant

Other #3
Type : meta
Duration : 24 s 475 ms
Bit rate mode : Variable

Re: My video that I shot on my Iphone XR in 4K, 60FPS isn't displaying my video content 2 weeks, 2 days ago #214371

  • hugly
  • OFFLINE
  • Platinum Boarder
  • Posts: 23125
  • 2 weeks, 2 days ago
Hello,

Mediainfo shows the HEVC video codec which isn't supported with V14.5. Lightworks 2020 supports HEVC. It's still in beta state, but close to release, so you could give it a try and tell how it works for you.

If you should encounter performance problems when editing the 4K material on your computer, try the internal proxy workflow with 2020:

www.lwks.com/index.php?option=com_kunena&func=view&catid=217&id=194770&Itemid=81#194787
It's better to travel well than to arrive...
  • Page:
  • 1
Time to create page: 0.32 seconds
Scroll To Top