Welcome, Guest
Username Password: Remember me
  • Page:
  • 1

TOPIC: How to post Mediainfo

How to post Mediainfo 3 days, 10 hours ago #235619

  • hugly
  • OFFLINE
  • Platinum Boarder
  • Posts: 28304
  • 3 days, 10 hours ago
Mediainfo is a commonly used tool to analyse technical data of video and audio media. A 'Mediainfo report' (aka mediainfo) is frequently requested on this forum if issues appear to be media related.

This describes how to create and post mediainfo in three steps:

  1. Download Mediainfo from here mediaarea.net/en/MediaInfo and install it.
  2. Open the media file with Mediainfo and switch to the text view (View>>Text).
  3. Mark all (Ctrl+A), then copy (Ctrl+C) & paste (Ctr+V) the text from Mediainfo to your response.

If you need more detailed information , please see: Please read this before posting


---------------------------------------------------------------------------------------

Sample mediainfo (no need to read it):

General
Complete name : D:\Some Media\aVideo.mp4
Format : MPEG-4
Format profile : Base Media
Codec ID : isom (isom/iso2/avc1/mp41)
File size : 9.80 MiB
Duration : 20 s 54 ms
Overall bit rate : 4 101 kb/s
Writing application : Lavf58.12.100

Video
ID : 1
Format : AVC
Format/Info : Advanced Video Codec
Format profile : High@L5
Format settings : CABAC / 5 Ref Frames
Format settings, CABAC : Yes
Format settings, Reference frames : 5 frames
Codec ID : avc1
Codec ID/Info : Advanced Video Coding
Duration : 20 s 20 ms
Bit rate : 3 773 kb/s
Width : 1 920 pixels
Height : 1 080 pixels
Display aspect ratio : 16:9
Frame rate mode : Constant
Frame rate : 29.970 (30000/1001) FPS
Color space : YUV
Chroma subsampling : 4:2:0
Bit depth : 8 bits
Scan type : Progressive
Bits/(Pixel*Frame) : 0.061
Stream size : 9.01 MiB (92%)
Codec configuration box : avcC

Audio #1
ID : 2
Format : AAC LC
Format/Info : Advanced Audio Codec Low Complexity
Codec ID : mp4a-40-2
Duration : 20 s 54 ms
Bit rate mode : Constant
Bit rate : 161 kb/s
Channel(s) : 2 channels
Channel layout : L R
Sampling rate : 48.0 kHz
Frame rate : 46.875 FPS (1024 SPF)
Compression mode : Lossy
Stream size : 393 KiB (4%)
Default : Yes
Alternate group : 1
It's better to travel well than to arrive...
Last Edit: 3 days, 4 hours ago by hugly.
  • Page:
  • 1
Time to create page: 0.34 seconds
Scroll To Top