Welcome, Guest
Username Password: Remember me
  • Page:
  • 1

TOPIC: MP4 Video has Audio out of Sync. Recorded with Mirillis Action!

MP4 Video has Audio out of Sync. Recorded with Mirillis Action! 4 years, 9 months ago #86084

  • Maxunit
  • OFFLINE
  • Fresh Boarder
  • Posts: 2
  • 4 years, 9 months ago
Moved to screen capture. BTW, this type of problem seems endemic to people using screen capture software.

Dear Lightworks Team,

I found Lightworks yesterday after searching for other Video Editing Solutions next to the other popular ones like Sony Vegas etc and was really surprised, how rather easy Lightworks is to use after reading up how the basics work.

Anyway,

Here's my problem:

I usually record Gameplay with an App called "Mirillis Action!" and it records in MP4, 1080p, 60 FPS and with nVIDIA NVENC to utilize the power of the video processor from my GeForce GTX 970.

Also, since I am solely using a Logitec G35 7.1 Headset, the MP4 file has serveral more audio tracks. If I import this MP4 file into Lightworks, the video plays fine, but the audio is slowed down extremely and stays behind.

What can I do to fix it? Is converting it with something like XMedia Recode the only solution? EyeFrame sadly cannot convert the File.

MediaInfo Report:

General
Complete name : D:\Action! Recordings\Video\Video 12-01-2015 03-33-05.mp4
Format : MPEG-4
Format profile : Base Media / Version 1
Codec ID : mp41
File size : 7.90 GiB
Duration : 37mn 47s
Overall bit rate : 29.9 Mbps
Encoded date : UTC 2015-01-12 03:10:53
Tagged date : UTC 2015-01-12 03:10:53

Video
ID : 1
Format : AVC
Format/Info : Advanced Video Codec
Format profile : Baseline@L4.2
Format settings, CABAC : No
Format settings, ReFrames : 1 frame
Format settings, GOP : M=1, N=121
Muxing mode : Container profile=Baseline@3.0
Codec ID : avc1
Codec ID/Info : Advanced Video Coding
Duration : 37mn 47s
Duration_FirstFrame : -3ms
Bit rate : 29.4 Mbps
Width : 1 920 pixels
Height : 1 080 pixels
Display aspect ratio : 16:9
Frame rate mode : Constant
Frame rate : 60.000 fps
Color space : YUV
Chroma subsampling : 4:2:0
Bit depth : 8 bits
Scan type : Progressive
Bits/(Pixel*Frame) : 0.236
Stream size : 7.75 GiB (98%)
Language : English
Encoded date : UTC 2015-01-12 03:10:53
Tagged date : UTC 2015-01-12 03:10:53

Audio #1
ID : 2
Format : AAC
Format/Info : Advanced Audio Codec
Format profile : LC
Codec ID : 40
Duration : 37mn 47s
Bit rate mode : Constant
Bit rate : 384 Kbps
Channel(s) : 6 channels
Channel positions : Front: L C R, Side: L R, LFE
Sampling rate : 44.1 KHz
Compression mode : Lossy
Stream size : 104 MiB (1%)
Language : English
Encoded date : UTC 2015-01-12 03:10:53
Tagged date : UTC 2015-01-12 03:10:53

Audio #2
ID : 3
Format : AAC
Format/Info : Advanced Audio Codec
Format profile : LC
Codec ID : 40
Duration : 37mn 47s
Bit rate mode : Constant
Bit rate : 154 Kbps
Nominal bit rate : 384 Kbps
Channel(s) : 6 channels
Channel positions : Front: L C R, Side: L R, LFE
Sampling rate : 44.1 KHz
Compression mode : Lossy
Stream size : 41.7 MiB (1%)
Language : English
Encoded date : UTC 2015-01-12 03:10:53
Tagged date : UTC 2015-01-12 03:10:53
Last Edit: 4 years, 9 months ago by arniepix.

Re: MP4 Video has Audio out of Sync. Recorded with Mirillis Action! 4 years, 9 months ago #86226

  • RWAV
  • Moderator
    Pro User
  • OFFLINE
  • Moderator
  • Posts: 6325
  • 4 years, 9 months ago
If you are using a 60fps project please see the following message.

www.lwks.com/index.php?option=com_kunena&func=view&catid=8&id=80022&Itemid=81#86151
BETA System
Microsoft Windows 7 Professional 64BIT
HP Z800 Workstation
  • Page:
  • 1
Time to create page: 0.29 seconds
Scroll To Top