Welcome, Guest
Username Password: Remember me
  • Page:
  • 1

TOPIC: Lightworks Doesn't see my MP4 file video

Lightworks Doesn't see my MP4 file video 2 months, 1 week ago #205741

  • Masikist
  • OFFLINE
  • Fresh Boarder
  • Posts: 2
  • 2 months, 1 week ago
So lightworks unfortunately isn't showing any video i've created using my streaming logitech webcam. i tried moving the mp4 file into different folders and changing the name, but unfortunately it does not show anything. any help or reassurance would be appreciated

Re: Lightworks Doesn't see my MP4 file video 2 months, 1 week ago #205744

  • hugly
  • OFFLINE
  • Platinum Boarder
  • Posts: 21601
  • 2 months, 1 week ago
Hello,

Could you post your computer details, including OS/version and Lightworks version and a Mediainfo report? Here you'll find information on how to create and post Mediainfo reports:

www.lwks.com/index.php?option=com_kunena&func=view&catid=23&id=66072&Itemid=81#66072
It's better to travel well than to arrive...
Last Edit: 2 months, 1 week ago by hugly.

Re: Lightworks Doesn't see my MP4 file video 2 months ago #205926

  • Masikist
  • OFFLINE
  • Fresh Boarder
  • Posts: 2
  • 2 months ago
My computer is an Acer Nitro 5 (1TB HDD, Windows 10, 8GB Ram, Intel i5)

Version of Lightworks is 14.5.0.0


Mediainfo:


General
Complete name : C:\Users\Guadalupe Rangel III\Videos\Logitech\LogiCapture\2019-10-06_12-53-10.mp4
Format : MPEG-4
Format profile : Base Media
Codec ID : isom (isom/iso2/avc1/iso6/mp41)
File size : 7.30 MiB
Duration : 5 s 33 ms
Overall bit rate : 12.2 Mb/s
Writing application : Lavf57.66.102

Video
ID : 1
Format : AVC
Format/Info : Advanced Video Codec
Format profile : High@L4
Format settings : CABAC / 1 Ref Frames
Format settings, CABAC : Yes
Format settings, Reference frames : 1 frame
Format settings, GOP : M=1, N=30
Codec ID : avc1
Codec ID/Info : Advanced Video Coding
Duration : 5 s 33 ms
Bit rate : 11.3 Mb/s
Width : 1 920 pixels
Height : 1 080 pixels
Display aspect ratio : 16:9
Frame rate mode : Constant
Frame rate : 30.000 FPS
Color space : YUV
Chroma subsampling : 4:2:0
Bit depth : 8 bits
Scan type : Progressive
Bits/(Pixel*Frame) : 0.182
Stream size : 6.80 MiB (93%)
Codec configuration box : avcC

Audio #1
ID : 2
Format : AAC LC
Format/Info : Advanced Audio Codec Low Complexity
Codec ID : mp4a-40-2
Duration : 4 s 867 ms
Bit rate : 192 kb/s
Channel(s) : 2 channels
Channel layout : L R
Sampling rate : 48.0 kHz
Frame rate : 46.875 FPS (1024 SPF)
Compression mode : Lossy
Stream size : 116 KiB (2%)
Title : Mixed Audio
Default : Yes
Alternate group : 1

Audio #2
ID : 3
Format : AAC LC
Format/Info : Advanced Audio Codec Low Complexity
Codec ID : mp4a-40-2
Duration : 4 s 867 ms
Bit rate : 192 kb/s
Channel(s) : 2 channels
Channel layout : L R
Sampling rate : 48.0 kHz
Frame rate : 46.875 FPS (1024 SPF)
Compression mode : Lossy
Stream size : 116 KiB (2%)
Title : Audio Input #0
Default : No
Alternate group : 1

Audio #3
ID : 4
Format : AAC LC
Format/Info : Advanced Audio Codec Low Complexity
Codec ID : mp4a-40-2
Duration : 4 s 867 ms
Bit rate : 22.5 kb/s
Channel(s) : 2 channels
Channel layout : L R
Sampling rate : 48.0 kHz
Frame rate : 46.875 FPS (1024 SPF)
Compression mode : Lossy
Stream size : 13.4 KiB (0%)
Title : Audio Playback #0
Default : No
Alternate group : 1

Audio #4
ID : 5
Format : AAC LC
Format/Info : Advanced Audio Codec Low Complexity
Codec ID : mp4a-40-2
Duration : 4 s 867 ms
Bit rate : 192 kb/s
Channel(s) : 2 channels
Channel layout : L R
Sampling rate : 48.0 kHz
Frame rate : 46.875 FPS (1024 SPF)
Compression mode : Lossy
Stream size : 116 KiB (2%)
Title : Mixed Audio (Duplicate Fix for WMP)
Default : No
Alternate group : 1

Re: Lightworks Doesn't see my MP4 file video 2 months ago #205928

  • hugly
  • OFFLINE
  • Platinum Boarder
  • Posts: 21601
  • 2 months ago
From medatadata, I can't see any reason why Lightworks should not see or refuse to import this video.

Would you mind sharing the file? The size is below 20 MB, so you could simply attach it with your response.
It's better to travel well than to arrive...
  • Page:
  • 1
Time to create page: 0.48 seconds
Scroll To Top