Lightworks: The professional editor for everyone - Forum Kunena Site Syndication https://www.lwks.com/ Fri, 25 Sep 2020 19:03:48 +0000 Kunena 1.6 components/com_kunena/template/default/images/icons/rss.png Lightworks: The professional editor for everyone - Forum en-gb Audio levels too low for some players. - by: danieldmartin66@gmail.com https://www.lwks.com/index.php?option=com_kunena&func=view&catid=8&id=225347&Itemid=81#225347 https://www.lwks.com/index.php?option=com_kunena&func=view&catid=8&id=225347&Itemid=81#225347 Audio Sun, 20 Sep 2020 21:59:15 +0000 Audio delay in imported version of MTS BDAV file - by: BrynClarke https://www.lwks.com/index.php?option=com_kunena&func=view&catid=8&id=225346&Itemid=81#225346 https://www.lwks.com/index.php?option=com_kunena&func=view&catid=8&id=225346&Itemid=81#225346
  1. I created a new (latest version of) Lightworks Project under Windows 10 using the default values.
  2. I imported a video file from a conducting masterclass into Lightworks (file parameters below) but encountered significant sync issue - audio delay .
  3. The file plays OK using Windows Media Player or Films & TV.
  4. An exported sequence from the video exhibits the same audio delay in WMP or Films & TV
  5. I downloaded the SyncCheck files from the topic head and played these on my system with WMP and Films & TV. They are nearly OK on my system - video and sound align at -1 or -2 frames (WMP better than Films & TV).
  6. When I import the 25fps SyncCheck file it has similar audio delay to my conducting video - aligns at +12 (or is it -12? video first then audio). The 30fps SyncCheck file won't import - frame rate problem.
  7. My conducting file has 50fps but imports OK.
  8. I tried using AnySoft to convert to iPhone mp4 then importing it - it imported showing 25fps, but this had similar audio delay.

My file details are here (but the SyncCheck file seems to have the same problem):-
General
ID : 0 (0x0)
Complete name : C:\Users\brync\Downloads\Concert-Front Antonina Bryn Benjamin.MTS
Format : BDAV
Format/Info : Blu-ray Video
File size : 3.99 GiB
Duration : 22 min 56 s
Overall bit rate mode : Variable
Overall bit rate : 24.9 Mb/s
Maximum Overall bit rate : 28.0 Mb/s
Recorded date : 2020-08-07 18:16:08+01:00
Writing application : Panasonic

Video
ID : 4113 (0x1011)
Menu ID : 1 (0x1)
Format : AVC
Format/Info : Advanced Video Codec
Format profile : High@L4.2
Format settings : CABAC / 2 Ref Frames
Format settings, CABAC : Yes
Format settings, Reference frames : 2 frames
Codec ID : 27
Duration : 22 min 55 s
Bit rate mode : Variable
Bit rate : 23.6 Mb/s
Maximum bit rate : 25.0 Mb/s
Width : 1 920 pixels
Height : 1 080 pixels
Display aspect ratio : 16:9
Frame rate : 50.000 FPS
Color space : YUV
Chroma subsampling : 4:2:0
Bit depth : 8 bits
Scan type : Progressive
Bits/(Pixel*Frame) : 0.228
Stream size : 3.79 GiB (95%)

Audio
ID : 4352 (0x1100)
Menu ID : 1 (0x1)
Format : AC-3
Format/Info : Audio Coding 3
Commercial name : Dolby Digital
Codec ID : 129
Duration : 22 min 56 s
Bit rate mode : Constant
Bit rate : 256 kb/s
Channel(s) : 2 channels
Channel layout : L R
Sampling rate : 48.0 kHz
Frame rate : 31.250 FPS (1536 SPF)
Compression mode : Lossy
Delay relative to video : -340 ms
Stream size : 42.0 MiB (1%)
Service kind : Complete Main

Text
ID : 4608 (0x1200)
Menu ID : 1 (0x1)
Format : PGS
Codec ID : 144
Duration : 22 min 55 s
Delay relative to video : 40 ms]]>
Audio Sun, 20 Sep 2020 21:51:06 +0000
Playback delay - by: Boi247 https://www.lwks.com/index.php?option=com_kunena&func=view&catid=8&id=225326&Itemid=81#225326 https://www.lwks.com/index.php?option=com_kunena&func=view&catid=8&id=225326&Itemid=81#225326 I render the video, and it's all perfectly synced. It's off by like one frame, but that's a separate issue, that I don't really care about. What I do care about, is that this delay is really distracting, and I've tried searching for a solution for this issue on Youtube and lwks topics, but so far I've come out empty handed.
Can somebody help me?]]>
Audio Sun, 20 Sep 2020 14:02:58 +0000
Sound artifact cannot be deleted - by: filmolero https://www.lwks.com/index.php?option=com_kunena&func=view&catid=8&id=225232&Itemid=81#225232 https://www.lwks.com/index.php?option=com_kunena&func=view&catid=8&id=225232&Itemid=81#225232 Audio Sat, 19 Sep 2020 10:58:13 +0000 Audio turned off randomly. - by: LeifZzz https://www.lwks.com/index.php?option=com_kunena&func=view&catid=8&id=225189&Itemid=81#225189 https://www.lwks.com/index.php?option=com_kunena&func=view&catid=8&id=225189&Itemid=81#225189
I also imported other clips that were mp4 and some of them seem to work fine, but most of all the clips are not working anymore.]]>
Audio Fri, 18 Sep 2020 14:40:17 +0000
Audio not working - by: kykareky https://www.lwks.com/index.php?option=com_kunena&func=view&catid=8&id=224795&Itemid=81#224795 https://www.lwks.com/index.php?option=com_kunena&func=view&catid=8&id=224795&Itemid=81#224795 Audio Sat, 12 Sep 2020 04:54:11 +0000 Audio slowly de-synchronizing from video - by: ChristieJoy https://www.lwks.com/index.php?option=com_kunena&func=view&catid=8&id=224416&Itemid=81#224416 https://www.lwks.com/index.php?option=com_kunena&func=view&catid=8&id=224416&Itemid=81#224416 I am a fresh fresh baby to the video editing world and I do not speak the video editing language, so I truly apologize if my question has a super obvious answer. If anyone has the patience to hold my hand through this troubleshooting session I am so grateful!

My project is a pretty simple one - using video taken with an iPhone6, syncing it with audio from a Zoom H5 Handy Recorder, and doing some basic edits (cropping the beginning and end, and adding some text here and there). I am using the free version of Lightworks 2020.1 on a 2.5 year-old Asus running Windows 10 Pro (Processor - Intel Core i7-7600HQ CPU @ 2.60Ghz 2.59 GHz, 64-bit OS, x64-based processor). The issue that I am running into is that the audio slowly falls out of sync from the video.

I did another project like this a couple days ago on my Macbook Air and did not have this problem (I used the same iPhone and Zoom Recorder) - unfortunately, my Macbook was not happy with the amount of stress that the export put on it, so using it is no longer an option.
I have tried adjusting the speed of the audio, but it seems that the speed can only be changed by whole percentage points, which is too much of an adjustment. I also looked through tutorials, Youtube videos, and older forum topics, but they all seem to be for previous versions (or perhaps for the paid versions) of Lightworks, so the fixes have not worked for me.
If anyone has any advice or potential fixes, I'd be grateful for your expertise!]]>
Audio Mon, 31 Aug 2020 08:21:32 +0000
Exported audio lags - by: neilblack https://www.lwks.com/index.php?option=com_kunena&func=view&catid=8&id=224270&Itemid=81#224270 https://www.lwks.com/index.php?option=com_kunena&func=view&catid=8&id=224270&Itemid=81#224270
My PC has a SSD HD and Windows 10.
Frame rate is 48 FPS, bit rate 24, AVI file, 1080i]]>
Audio Thu, 27 Aug 2020 22:48:07 +0000