Lightworks: The professional editor for everyone - Forum Kunena Site Syndication https://www.lwks.com/ Tue, 19 Feb 2019 03:55:04 +0000 Kunena 1.6 components/com_kunena/template/default/images/icons/rss.png Lightworks: The professional editor for everyone - Forum en-gb Sequence Audio only playing in left ear - by: Memesterchief https://www.lwks.com/index.php?option=com_kunena&func=view&catid=8&id=193298&Itemid=81#193298 https://www.lwks.com/index.php?option=com_kunena&func=view&catid=8&id=193298&Itemid=81#193298 Audio Sun, 17 Feb 2019 12:48:04 +0000 Bad Audio EQ after purchasing license - by: ChrisMah https://www.lwks.com/index.php?option=com_kunena&func=view&catid=8&id=193266&limit=15&limitstart=15&Itemid=81#193266 https://www.lwks.com/index.php?option=com_kunena&func=view&catid=8&id=193266&limit=15&limitstart=15&Itemid=81#193266
The sound after purchasing the license is high pitched and lost the bass component. I have tried playing with the EQ settings but it is extremely un-user friendly. Why can't it be equalizers that you can move up and down rather then the crazy way it is set up now?

Appreciate any help to help me have a V shape equalizer setting (or to reverse the license purchase)]]>
Audio Sun, 17 Feb 2019 00:19:07 +0000
Hot to increase audio on certain clips? - by: YeetSkeetDelete https://www.lwks.com/index.php?option=com_kunena&func=view&catid=8&id=193125&Itemid=81#193125 https://www.lwks.com/index.php?option=com_kunena&func=view&catid=8&id=193125&Itemid=81#193125 Audio Tue, 12 Feb 2019 01:30:48 +0000 External audio change its pitch - by: Skafandr14 https://www.lwks.com/index.php?option=com_kunena&func=view&catid=8&id=192991&Itemid=81#192991 https://www.lwks.com/index.php?option=com_kunena&func=view&catid=8&id=192991&Itemid=81#192991 This happens regardeless the frame rate of the project. And as i noticed, there are no sync issues, just playback with lower pitch.

I checked latency of audio chain (as it is shown here: www.lwks.com/index.php?option=com_kunena&func=view&catid=8&id=130612&Itemid=81), i found that my latency is about 3 frames.

Is the pitch issue is the consequence of audio chain latency or it can be something else?
When exported there are no problems with audio pitch.]]>
Audio Sat, 09 Feb 2019 10:59:56 +0000
Remove Audio - by: Lizerly https://www.lwks.com/index.php?option=com_kunena&func=view&catid=8&id=192911&Itemid=81#192911 https://www.lwks.com/index.php?option=com_kunena&func=view&catid=8&id=192911&Itemid=81#192911
Please when awnsering try to make it as understandable as it can be. Thank you.]]>
Audio Fri, 08 Feb 2019 15:39:03 +0000
No Sound - by: JordonM https://www.lwks.com/index.php?option=com_kunena&func=view&catid=8&id=192596&Itemid=81#192596 https://www.lwks.com/index.php?option=com_kunena&func=view&catid=8&id=192596&Itemid=81#192596
The clips I imported onto the program do not play sound and I am not sure what to do. What am I missing? I'm honestly confused.]]>
Audio Mon, 04 Feb 2019 15:23:22 +0000
No sound - by: mriwhitton@gmail.com https://www.lwks.com/index.php?option=com_kunena&func=view&catid=8&id=192585&Itemid=81#192585 https://www.lwks.com/index.php?option=com_kunena&func=view&catid=8&id=192585&Itemid=81#192585 I found some advice
"You can change whether Lightworks uses the Hardware I/O or System Audio in the System Settings panel on the project browser screen." Thought this might help but these options are greyed out in my system settings .
I am def not a IT expert- don't speak the lingo, but have done several videos on Lightworks and have been loving it till now. Have the Free version.
Any help appreciated.]]>
Audio Mon, 04 Feb 2019 11:22:21 +0000
how to implay audio change to all parts not just 1. - by: Ronen014 https://www.lwks.com/index.php?option=com_kunena&func=view&catid=8&id=192562&Itemid=81#192562 https://www.lwks.com/index.php?option=com_kunena&func=view&catid=8&id=192562&Itemid=81#192562 There are Track sound level and there is Clip gain, i don't know what the difference sounded the same and i always did only the Track sound level. Now before i used to make videos of 15-20 mins so i didn't mind going from each part to part and raising it one by one now, but now im making 30-40 minutes or more videos and it will take me ages.
If iwant to raise the Tack sound level to +5.0 how do i make effect the all video? not just one part.]]>
Audio Sun, 03 Feb 2019 16:47:02 +0000
Lightworks volume vs iTunes/Quicktime - by: jq8585 https://www.lwks.com/index.php?option=com_kunena&func=view&catid=8&id=192555&Itemid=81#192555 https://www.lwks.com/index.php?option=com_kunena&func=view&catid=8&id=192555&Itemid=81#192555
Thanks!

Josh]]>
Audio Sun, 03 Feb 2019 10:48:36 +0000
EXPORTING - by: Synenemaria https://www.lwks.com/index.php?option=com_kunena&func=view&catid=8&id=192529&Itemid=81#192529 https://www.lwks.com/index.php?option=com_kunena&func=view&catid=8&id=192529&Itemid=81#192529 please help>?]]> Audio Sat, 02 Feb 2019 21:51:02 +0000 SOLVED static MP3 and WAV - by: yoshi12345 https://www.lwks.com/index.php?option=com_kunena&func=view&catid=8&id=192498&Itemid=81#192498 https://www.lwks.com/index.php?option=com_kunena&func=view&catid=8&id=192498&Itemid=81#192498
I have a few threads about this topic but cannot seem to figure it out (I am new to video editing and not the most tec savy).

I am trying to import two songs into lightworks (version 14, free download). When I import them into Lightworks and play them back, it seems like they are a tad slower and produce a lot of static (like an old stereo).

The audio on lightworks is set to 48khz (standard).

I've tried uploading MP3 as well as WAV formats (I used audacity to convert the mp3), at 44,1khz and 48khz and using either 16- or 32-bit.

Please help.

EDIT
solved with shutting down lightworks and opening up again. Obvs]]>
Audio Fri, 01 Feb 2019 22:24:15 +0000
LW adds seconds to my audio in export making re-importing of sound to be out of sync - by: ifeohmy https://www.lwks.com/index.php?option=com_kunena&func=view&catid=8&id=192494&Itemid=81#192494 https://www.lwks.com/index.php?option=com_kunena&func=view&catid=8&id=192494&Itemid=81#192494 When I use lightworks I use the Eyeframe converter on my video clips, then I import them to lightworks and make proxies. I need Audacity to amplify my sounds, but I am noticing that lightworks takes my 28 minute, 38.24 second video/audio and exports it as 28 minutes, 40.12 second audio for Audacity import. Audacity imports it and exports it at that same length, and when I re-import to lightworks, my audio is now longer, out of sync, and if I remove the beginning part to force it to sync (as close as I can manually get it from deleting the beginning frames), the end goes out of sync by a lot. Not sure what to do, since I have to use audacity for removing white noise since lightworks doesn't have that functionality. If you need more info about it, let me know. Thanks

General
Complete name : C:\Users\Documents\Editing\audacity.mp4
Format : MPEG-4
Format profile : Base Media / Version 2
Codec ID : mp42 (isom/mp42)
File size : 296 MiB
Duration : 28 min 40 s
Overall bit rate mode : Variable
Overall bit rate : 1 443 kb/s
Encoded date : UTC 2019-02-01 19:27:22
Tagged date : UTC 2019-02-01 19:27:22

Video
ID : 1
Format : AVC
Format/Info : Advanced Video Codec
Format profile : Main@L3
Format settings : CABAC / 3 Ref Frames
Format settings, CABAC : Yes
Format settings, RefFrames : 3 frames
Codec ID : avc1
Codec ID/Info : Advanced Video Coding
Duration : 28 min 40 s
Bit rate mode : Variable
Bit rate : 1 281 kb/s
Maximum bit rate : 2 000 kb/s
Width : 426 pixels
Height : 240 pixels
Display aspect ratio : 16:9
Frame rate mode : Constant
Frame rate : 29.970 (30000/1001) FPS
Standard : NTSC
Color space : YUV
Chroma subsampling : 4:2:0
Bit depth : 8 bits
Scan type : Progressive
Bits/(Pixel*Frame) : 0.418
Stream size : 263 MiB (89%)
Language : English
Encoded date : UTC 2019-02-01 19:27:23
Tagged date : UTC 2019-02-01 19:27:23
Color range : Limited
Codec configuration box : avcC

Audio
ID : 2
Format : AAC LC
Format/Info : Advanced Audio Codec Low Complexity
Codec ID : mp4a-40-2
Duration : 28 min 40 s
Bit rate mode : Variable
Bit rate : 157 kb/s
Maximum bit rate : 188 kb/s
Channel(s) : 2 channels
Channel layout : L R
Sampling rate : 48.0 kHz
Frame rate : 46.875 FPS (1024 SPF)
Compression mode : Lossy
Stream size : 32.1 MiB (11%)
Language : English
Encoded date : UTC 2019-02-01 19:27:23
Tagged date : UTC 2019-02-01 19:27:23]]>
Audio Fri, 01 Feb 2019 21:37:21 +0000
sound out of sync - by: figmo124 https://www.lwks.com/index.php?option=com_kunena&func=view&catid=8&id=192389&Itemid=81#192389 https://www.lwks.com/index.php?option=com_kunena&func=view&catid=8&id=192389&Itemid=81#192389 Partway through I noticed sound out of sync with video.
Export too.

Audio is behind video by about 2 seconds.
I can fix it, but want to know how to avoid it?

I did a message search and read thru some similar questions. Did not see a resolution.]]>
Audio Wed, 30 Jan 2019 01:00:30 +0000
Audio not in sync with video - by: tictac570 https://www.lwks.com/index.php?option=com_kunena&func=view&catid=8&id=192142&Itemid=81#192142 https://www.lwks.com/index.php?option=com_kunena&func=view&catid=8&id=192142&Itemid=81#192142 Complete name : C:\Users\Michellester\Videos\ROH Recordings\Final Battle 2018\Ladder War 7 Pt. 2.mp4
Format : MPEG-4
Format profile : Base Media
Codec ID : isom (qt )
File size : 1.95 GiB
Duration : 15 min 26 s
Overall bit rate mode : Variable
Overall bit rate : 18.1 Mb/s

Video
ID : 2
Format : AVC
Format/Info : Advanced Video Codec
Format profile : Baseline@L4
Format settings : 1 Ref Frames
Format settings, CABAC : No
Format settings, RefFrames : 1 frame
Format settings, GOP : M=1, N=60
Codec ID : avc1
Codec ID/Info : Advanced Video Coding
Duration : 15 min 26 s
Bit rate : 17.9 Mb/s
Width : 1 920 pixels
Height : 1 080 pixels
Display aspect ratio : 16:9
Frame rate mode : Constant
Frame rate : 29.970 (30000/1001) FPS
Color space : YUV
Chroma subsampling : 4:2:0
Bit depth : 8 bits
Scan type : Progressive
Bits/(Pixel*Frame) : 0.288
Stream size : 1.93 GiB (99%)
Language : English
Codec configuration box : avcC]]>
Audio Sat, 26 Jan 2019 00:02:16 +0000
How to delete audio from a video - by: anduril_84 https://www.lwks.com/index.php?option=com_kunena&func=view&catid=8&id=192053&Itemid=81#192053 https://www.lwks.com/index.php?option=com_kunena&func=view&catid=8&id=192053&Itemid=81#192053 Thanks!]]> Audio Thu, 24 Jan 2019 15:29:54 +0000 How to deepen audio after speeding up source. - by: MelonMate https://www.lwks.com/index.php?option=com_kunena&func=view&catid=8&id=191984&Itemid=81#191984 https://www.lwks.com/index.php?option=com_kunena&func=view&catid=8&id=191984&Itemid=81#191984
Thanks in advance for any help!]]>
Audio Thu, 24 Jan 2019 03:35:07 +0000