Lightworks: The professional editor for everyone - Forum Kunena Site Syndication https://www.lwks.com/ Mon, 19 Nov 2018 14:21:06 +0000 Kunena 1.6 components/com_kunena/template/default/images/icons/rss.png Lightworks: The professional editor for everyone - Forum en-gb Audio out of sync - while editing it went out of sync - cannot resync - by: wgregori61 https://www.lwks.com/index.php?option=com_kunena&func=view&catid=8&id=188244&Itemid=81#188244 https://www.lwks.com/index.php?option=com_kunena&func=view&catid=8&id=188244&Itemid=81#188244

Thanks,
Wayne

This image is hidden for guests. Please log in or register to see it.]]>
Audio Sat, 17 Nov 2018 01:29:46 +0000
Odd audio problem - by: oODeanOo https://www.lwks.com/index.php?option=com_kunena&func=view&catid=8&id=187950&Itemid=81#187950 https://www.lwks.com/index.php?option=com_kunena&func=view&catid=8&id=187950&Itemid=81#187950
The waveform shown by Lightworks is correct but the audio is out of time, an export exports with the audio out of time but strangely if I exchange it with Reaper the audio is as I would expect.

Any ideas?

Dean]]>
Audio Mon, 12 Nov 2018 21:32:21 +0000
Distorted audio tracks - by: kdawg6911 https://www.lwks.com/index.php?option=com_kunena&func=view&catid=8&id=187831&Itemid=81#187831 https://www.lwks.com/index.php?option=com_kunena&func=view&catid=8&id=187831&Itemid=81#187831 But lowering the volume by about 12.5 DB in lightworks Seems to solve the problem not sure why. At least the distortion isn't as noticeable. I am aware that they are transcodes but as far as getting copyright strikes on my youtube videos I don't want them. I use audacity to convert them to wavs.

If anyone has any other advice in regards to this. But It doesn't seem to do it with every audio track. at least as far as I have noticed. Anyways]]>
Audio Sun, 11 Nov 2018 03:20:19 +0000
Adjusting volume - live editing - MultiCam bin - by: wgregori61 https://www.lwks.com/index.php?option=com_kunena&func=view&catid=8&id=187809&Itemid=81#187809 https://www.lwks.com/index.php?option=com_kunena&func=view&catid=8&id=187809&Itemid=81#187809
Any ideas?

Wayne]]>
Audio Sat, 10 Nov 2018 22:54:24 +0000
Audio represented as simple line in compact view - level - lwks 14.5 - by: wgregori61 https://www.lwks.com/index.php?option=com_kunena&func=view&catid=8&id=187721&Itemid=81#187721 https://www.lwks.com/index.php?option=com_kunena&func=view&catid=8&id=187721&Itemid=81#187721
Any ideas?

Wayne]]>
Audio Fri, 09 Nov 2018 17:41:26 +0000
Audio Lag in V14 Please Help - by: quentindcrs https://www.lwks.com/index.php?option=com_kunena&func=view&catid=8&id=187566&Itemid=81#187566 https://www.lwks.com/index.php?option=com_kunena&func=view&catid=8&id=187566&Itemid=81#187566

Format : MPEG-4
Format profile : QuickTime
Codec ID : qt 2007.09 (qt /niko)
File size : 367 MiB
Duration : 3 min 6 s
Overall bit rate : 16.5 Mb/s
Encoded date : UTC 2014-01-01 00:00:00
Tagged date : UTC 2014-01-01 00:00:00
NCDT : NCTG

Video
ID : 1
Format : AVC
Format/Info : Advanced Video Codec
Format profile : Baseline@L4.1
Format settings : 2 Ref Frames
Format settings, CABAC : No
Format settings, RefFrames : 2 frames
Format settings, GOP : M=1, N=30
Codec ID : avc1
Codec ID/Info : Advanced Video Coding
Duration : 3 min 6 s
Bit rate : 15.0 Mb/s
Width : 1 920 pixels
Height : 1 080 pixels
Display aspect ratio : 16:9
Frame rate mode : Constant
Frame rate : 29.970 (30000/1001) FPS
Color space : YUV
Chroma subsampling : 4:2:0
Bit depth : 8 bits
Scan type : Progressive
Bits/(Pixel*Frame) : 0.241
Stream size : 332 MiB (91%)
Language : English
Encoded date : UTC 2014-01-01 00:00:00
Tagged date : UTC 2014-01-01 00:00:00
Color range : Full
Color primaries : BT.709
Transfer characteristics : BT.709
Matrix coefficients : BT.709
Codec configuration box : avcC

Audio
ID : 2
Format : PCM
Format settings : Little / Signed
Codec ID : sowt
Duration : 3 min 6 s
Bit rate mode : Constant
Bit rate : 1 536 kb/s
Channel(s) : 2 channels
Channel layout : L R
Sampling rate : 48.0 kHz
Bit depth : 16 bits
Stream size : 34.1 MiB (9%)
Language : English
Encoded date : UTC 2014-01-01 00:00:00
Tagged date : UTC 2014-01-01 00:00:00]]>
Audio Wed, 07 Nov 2018 00:05:32 +0000
lip synced studio audio drifts on export - by: robdrex https://www.lwks.com/index.php?option=com_kunena&func=view&catid=8&id=186995&Itemid=81#186995 https://www.lwks.com/index.php?option=com_kunena&func=view&catid=8&id=186995&Itemid=81#186995
this seems to me to be an unacceptable process for such a sophisticated program - can i not lock audio and video tracks by frams to make the lip sync stay put on export??

thanks anyone who can inform me - oh and i am using WAV output files from Audacity.]]>
Audio Fri, 26 Oct 2018 21:51:17 +0000
Import part of a video without the sound - by: MarilenaCh https://www.lwks.com/index.php?option=com_kunena&func=view&catid=8&id=186969&Itemid=81#186969 https://www.lwks.com/index.php?option=com_kunena&func=view&catid=8&id=186969&Itemid=81#186969 i want to add part of a video without its sound in a sequence.
Using the Flexible Project Layout, i could de-select the Audio channels in the viewer before inserting my clip to the new video.
How can i do this now (v14) using the Fixed Project Layout?

Thanks!]]>
Audio Fri, 26 Oct 2018 09:03:28 +0000
crosfade advice requested - by: geomcd1949 https://www.lwks.com/index.php?option=com_kunena&func=view&catid=8&id=186948&Itemid=81#186948 https://www.lwks.com/index.php?option=com_kunena&func=view&catid=8&id=186948&Itemid=81#186948
Suggestions on the length of the crossfade are appreciated. A one- or two-second transition sounds too abrupt. Could I extend the change to, say, four or even six seconds, or perhaps even longer? Should the timeline audio-line from the outro be the same slope as the intro to the Alkan, or could one be more or less steep than the other ? Is it a reasonable editing decision to start the decrease in the first piece BEFORE or AFTER beginning the intro?

I’m a little embarrassed to admit that one of my skill level requires some sort of crossfade tutorial, but c’est la vie. Links thereto are appreciated.]]>
Audio Fri, 26 Oct 2018 05:20:29 +0000
lwks + mackie controller / digidesign - by: lghtwrks https://www.lwks.com/index.php?option=com_kunena&func=view&catid=8&id=186836&Itemid=81#186836 https://www.lwks.com/index.php?option=com_kunena&func=view&catid=8&id=186836&Itemid=81#186836 still have an old digidesign, not working with lwks.
thx
s]]>
Audio Wed, 24 Oct 2018 22:03:16 +0000
Voice over from recorded audio - by: reddyrav@gmail.com https://www.lwks.com/index.php?option=com_kunena&func=view&catid=8&id=186656&Itemid=81#186656 https://www.lwks.com/index.php?option=com_kunena&func=view&catid=8&id=186656&Itemid=81#186656 Audio Mon, 22 Oct 2018 18:57:39 +0000