Lightworks: The professional editor for everyone - Forum Kunena Site Syndication https://www.lwks.com/ Sat, 27 Feb 2021 14:52:44 +0000 Kunena 1.6 components/com_kunena/template/default/images/icons/rss.png Lightworks: The professional editor for everyone - Forum en-gb How to export - by: Albanos https://www.lwks.com/index.php?option=com_kunena&func=view&catid=27&id=235656&Itemid=81#235656 https://www.lwks.com/index.php?option=com_kunena&func=view&catid=27&id=235656&Itemid=81#235656 if someone could help me figure this out, thanks!]]> Hints & Tips Tue, 23 Feb 2021 12:25:04 +0000 How to post Mediainfo - by: hugly https://www.lwks.com/index.php?option=com_kunena&func=view&catid=27&id=235619&Itemid=81#235619 https://www.lwks.com/index.php?option=com_kunena&func=view&catid=27&id=235619&Itemid=81#235619
This describes how to create and post mediainfo in three steps:

  1. Download Mediainfo from here mediaarea.net/en/MediaInfo and install it.
  2. Open the media file with Mediainfo and switch to the text view (View>>Text).
  3. Mark all (Ctrl+A), then copy (Ctrl+C) & paste (Ctr+V) the text from Mediainfo to your response.

If you need more detailed information , please see: Please read this before posting


---------------------------------------------------------------------------------------

Sample mediainfo (no need to read it):

General
Complete name : D:\Some Media\aVideo.mp4
Format : MPEG-4
Format profile : Base Media
Codec ID : isom (isom/iso2/avc1/mp41)
File size : 9.80 MiB
Duration : 20 s 54 ms
Overall bit rate : 4 101 kb/s
Writing application : Lavf58.12.100

Video
ID : 1
Format : AVC
Format/Info : Advanced Video Codec
Format profile : High@L5
Format settings : CABAC / 5 Ref Frames
Format settings, CABAC : Yes
Format settings, Reference frames : 5 frames
Codec ID : avc1
Codec ID/Info : Advanced Video Coding
Duration : 20 s 20 ms
Bit rate : 3 773 kb/s
Width : 1 920 pixels
Height : 1 080 pixels
Display aspect ratio : 16:9
Frame rate mode : Constant
Frame rate : 29.970 (30000/1001) FPS
Color space : YUV
Chroma subsampling : 4:2:0
Bit depth : 8 bits
Scan type : Progressive
Bits/(Pixel*Frame) : 0.061
Stream size : 9.01 MiB (92%)
Codec configuration box : avcC

Audio #1
ID : 2
Format : AAC LC
Format/Info : Advanced Audio Codec Low Complexity
Codec ID : mp4a-40-2
Duration : 20 s 54 ms
Bit rate mode : Constant
Bit rate : 161 kb/s
Channel(s) : 2 channels
Channel layout : L R
Sampling rate : 48.0 kHz
Frame rate : 46.875 FPS (1024 SPF)
Compression mode : Lossy
Stream size : 393 KiB (4%)
Default : Yes
Alternate group : 1]]>
Hints & Tips Mon, 22 Feb 2021 16:45:00 +0000
Exporting my video to my computer - by: Rachelann2k https://www.lwks.com/index.php?option=com_kunena&func=view&catid=27&id=235227&Itemid=81#235227 https://www.lwks.com/index.php?option=com_kunena&func=view&catid=27&id=235227&Itemid=81#235227
Thanks]]>
Hints & Tips Wed, 17 Feb 2021 15:10:57 +0000
iPad compatible? - by: sudbury16 https://www.lwks.com/index.php?option=com_kunena&func=view&catid=27&id=235112&Itemid=81#235112 https://www.lwks.com/index.php?option=com_kunena&func=view&catid=27&id=235112&Itemid=81#235112 Hints & Tips Tue, 16 Feb 2021 17:11:09 +0000 Video clip length - by: whdmiran https://www.lwks.com/index.php?option=com_kunena&func=view&catid=27&id=234850&Itemid=81#234850 https://www.lwks.com/index.php?option=com_kunena&func=view&catid=27&id=234850&Itemid=81#234850 I am new to Lightworks. Already tried few times to use it, but always given up. The main reason is that I don't find the way how to manually edit length of the video clip.

I want to insert a title at beginning, maybe a picture and I want to be able to edit the length of it by for example right mouse click on a clip - video length and you enter 5 seconds.

I am missing that, I was using it in Kdenlive, Davinci and HitFilmExpress, but I can't find a way here. I don't like to do it manually by dragging clip, it is for me too complicated.

Any help appreciated, before I give up on Lightworks again. Thanks.]]>
Hints & Tips Sun, 14 Feb 2021 10:24:36 +0000