Lightworks: The professional editor for everyone - Forum Kunena Site Syndication https://www.lwks.com/ Mon, 16 Sep 2019 13:02:49 +0000 Kunena 1.6 components/com_kunena/template/default/images/icons/rss.png Lightworks: The professional editor for everyone - Forum en-gb Ibc 2019 - by: lghtwrks https://www.lwks.com/index.php?option=com_kunena&func=view&catid=20&id=205117&Itemid=81#205117 https://www.lwks.com/index.php?option=com_kunena&func=view&catid=20&id=205117&Itemid=81#205117 Now wit "AI" support.
S.]]>
Miscellaneous Sun, 15 Sep 2019 15:11:20 +0000
Eyeframe won't convert my videos - by: kpocs https://www.lwks.com/index.php?option=com_kunena&func=view&catid=20&id=204312&Itemid=81#204312 https://www.lwks.com/index.php?option=com_kunena&func=view&catid=20&id=204312&Itemid=81#204312
I just started using the Eyeframe converter and for some reason, it will not convert my videos. Can someone please help and tell me why is this happening.

Here is the notepad file/media info:

"C:\Program Files (x86)\EyeFrame Converter\ffmbc.exe" -i "E:\Users\User\Google Drive\Travel and Adventure\Everything from Jona's gopro\100GOPRO\Forest with a bike\To code\maybe couple of secs of decent riding max.MP4" -vframes 1 -vf format=bgr24,scale='min(96,54*dar*sar):ow/dar/sar',pad='96:54:(96-iw)/2:(54-ih)/2:white' -threads 0 -y "C:\Users\Public\Documents\Eyeframe Data\Thumbs\maybe couple of secs of decent riding max.bmp"FFmbc version 0.7-rc7
Copyright (c) 2008-2012 Baptiste Coudurier and the FFmpeg developers
Input #0, mov,mp4,m4a,3gp,3g2,mj2, from 'E:\Users\User\Google Drive\Travel and Adventure\Everything from Jona's gopro\100GOPRO\Forest with a bike\To code\maybe couple of secs of decent riding max.MP4':
Metadata:
major_brand: mp41
minor_version: 538120216
compatible_brands: mp41
creation_time: 2019-08-22 16:43:44
Duration: 00:00:47.14, start: 0.000000, bitrate: 60367 kb/s
Stream #0.0(eng): Video: h264 (High), yuvj420p, 1920x1080p [PAR 1:1 DAR 16:9], 60097 kb/s, 119.88 fps
Metadata:
codec_name: GoPro AVC encoder
Stream #0.1(eng): Audio: aac, 48000 Hz, stereo, s16, 189 kb/s
Stream #0.2(eng): Data: unknown (gpmd), 33 kb/s
Stream #0.3(eng): Data: unknown (fdsc), 21 kb/s
Incompatible pixel format 'yuvj420p' for codec 'bmp', auto-selecting format 'bgr24'
Adjusting fps from 120000/1001 to 60/1
[scale @ 03FEC020] w:1920 h:1080 fmt:yuvj420p -> w:1920 h:1080 fmt:bgr24 flags:0x4
[scale @ 019C43E0] w:1920 h:1080 fmt:bgr24 -> w:96 h:54 fmt:bgr24 flags:0x4
[pad @ 019C4380] w:96 h:54 -> w:96 h:54 x:0 y:0 color:0xFFFFFFFF[rgba]
Output #0, image2, to 'C:\Users\Public\Documents\Eyeframe Data\Thumbs\maybe couple of secs of decent riding max.bmp':
Metadata:
encoder: FFmbc 0.7
Stream #0.0(und): Video: bmp, bgr24, 96x54p [PAR 1:1 DAR 16:9], vbr, lossless, 60.00 fps
Stream mapping:
Stream #0.0 -> #0.0
Press [q] to stop, [?] for help
frame= 1 fps= 7 q=0.0 Lsize= 0kB time=00:00:00.01 bitrate= 0.0kbits/s
video:15kB audio:0kB global headers:0kB muxing overhead 0.000000%

ffmbc.exe -i "E:\Users\User\Google Drive\Travel and Adventure\Everything from Jona's gopro\100GOPRO\Forest with a bike\To code\maybe couple of secs of decent riding max.MP4" -r 119.88 -vcodec mpeg2video -pix_fmt yuv422p -intra -qscale 1 -qmin 1 -acodec mp2 -ar 48000 -ab 384k -threads 8 -y "E:\Users\User\Google Drive\Travel and Adventure\Everything from Jona's gopro\100GOPRO\Forest with a bike\To code\coded\maybe couple of secs of decent riding max.mp4"
FFmbc version 0.7-rc7
Copyright (c) 2008-2012 Baptiste Coudurier and the FFmpeg developers
Input #0, mov,mp4,m4a,3gp,3g2,mj2, from 'E:\Users\User\Google Drive\Travel and Adventure\Everything from Jona's gopro\100GOPRO\Forest with a bike\To code\maybe couple of secs of decent riding max.MP4':
Metadata:
major_brand: mp41
minor_version: 538120216
compatible_brands: mp41
creation_time: 2019-08-22 16:43:44
Duration: 00:00:47.14, start: 0.000000, bitrate: 60367 kb/s
Stream #0.0(eng): Video: h264 (High), yuvj420p, 1920x1080p [PAR 1:1 DAR 16:9], 60097 kb/s, 119.88 fps
Metadata:
codec_name: GoPro AVC encoder
Stream #0.1(eng): Audio: aac, 48000 Hz, stereo, s16, 189 kb/s
Stream #0.2(eng): Data: unknown (gpmd), 33 kb/s
Stream #0.3(eng): Data: unknown (fdsc), 21 kb/s
E:\Users\User\Google Drive\Travel and Adventure\Everything from Jona's gopro\100GOPRO\Forest with a bike\To code\coded\maybe couple of secs of decent riding max.mp4: Permission denied

ffmbc.exe -i "E:\Users\User\Google Drive\Travel and Adventure\Everything from Jona's gopro\100GOPRO\Forest with a bike\To code\maybe couple of secs of decent riding max.MP4" -r 119.88 -vcodec mpeg2video -pix_fmt yuv422p -intra -qscale 1 -qmin 1 -acodec mp2 -ar 48000 -ab 384k -threads 8 -y "E:\Users\User\Google Drive\Travel and Adventure\Everything from Jona's gopro\100GOPRO\Forest with a bike\To code\coded\maybe couple of secs of decent riding max.mp4"
FFmbc version 0.7-rc7
Copyright (c) 2008-2012 Baptiste Coudurier and the FFmpeg developers
Input #0, mov,mp4,m4a,3gp,3g2,mj2, from 'E:\Users\User\Google Drive\Travel and Adventure\Everything from Jona's gopro\100GOPRO\Forest with a bike\To code\maybe couple of secs of decent riding max.MP4':
Metadata:
major_brand: mp41
minor_version: 538120216
compatible_brands: mp41
creation_time: 2019-08-22 16:43:44
Duration: 00:00:47.14, start: 0.000000, bitrate: 60367 kb/s
Stream #0.0(eng): Video: h264 (High), yuvj420p, 1920x1080p [PAR 1:1 DAR 16:9], 60097 kb/s, 119.88 fps
Metadata:
codec_name: GoPro AVC encoder
Stream #0.1(eng): Audio: aac, 48000 Hz, stereo, s16, 189 kb/s
Stream #0.2(eng): Data: unknown (gpmd), 33 kb/s
Stream #0.3(eng): Data: unknown (fdsc), 21 kb/s
E:\Users\User\Google Drive\Travel and Adventure\Everything from Jona's gopro\100GOPRO\Forest with a bike\To code\coded\maybe couple of secs of decent riding max.mp4: Permission denied

"C:\Program Files (x86)\EyeFrame Converter\ffmbc.exe" -i "E:\Users\User\Google Drive\Travel and Adventure\Everything from Jona's gopro\100GOPRO\Forest with a bike\To code\start the bike.MP4" -vframes 1 -vf format=bgr24,scale='min(96,54*dar*sar):ow/dar/sar',pad='96:54:(96-iw)/2:(54-ih)/2:white' -threads 0 -y "C:\Users\Public\Documents\Eyeframe Data\Thumbs\start the bike.bmp"FFmbc version 0.7-rc7
Copyright (c) 2008-2012 Baptiste Coudurier and the FFmpeg developers
Input #0, mov,mp4,m4a,3gp,3g2,mj2, from 'E:\Users\User\Google Drive\Travel and Adventure\Everything from Jona's gopro\100GOPRO\Forest with a bike\To code\start the bike.MP4':
Metadata:
major_brand: mp41
minor_version: 538120216
compatible_brands: mp41
creation_time: 2019-08-22 15:04:20
Duration: 00:01:33.56, start: 0.000000, bitrate: 60283 kb/s
Stream #0.0(eng): Video: h264 (High), yuvj420p, 1920x1080p [PAR 1:1 DAR 16:9], 60026 kb/s, 119.88 fps
Metadata:
codec_name: GoPro AVC encoder
Stream #0.1(eng): Audio: aac, 48000 Hz, stereo, s16, 189 kb/s
Stream #0.2(eng): Data: unknown (gpmd), 33 kb/s
Stream #0.3(eng): Data: unknown (fdsc), 21 kb/s
Incompatible pixel format 'yuvj420p' for codec 'bmp', auto-selecting format 'bgr24'
Adjusting fps from 120000/1001 to 60/1
[scale @ 03C70920] w:1920 h:1080 fmt:yuvj420p -> w:1920 h:1080 fmt:bgr24 flags:0x4
[scale @ 03C6F860] w:1920 h:1080 fmt:bgr24 -> w:96 h:54 fmt:bgr24 flags:0x4
[pad @ 03C6FCA0] w:96 h:54 -> w:96 h:54 x:0 y:0 color:0xFFFFFFFF[rgba]
Output #0, image2, to 'C:\Users\Public\Documents\Eyeframe Data\Thumbs\start the bike.bmp':
Metadata:
encoder: FFmbc 0.7
Stream #0.0(und): Video: bmp, bgr24, 96x54p [PAR 1:1 DAR 16:9], vbr, lossless, 60.00 fps
Stream mapping:
Stream #0.0 -> #0.0
Press [q] to stop, [?] for help
frame= 1 fps= 8 q=0.0 Lsize= 0kB time=00:00:00.01 bitrate= 0.0kbits/s
video:15kB audio:0kB global headers:0kB muxing overhead 0.000000%

ffmbc.exe -i "E:\Users\User\Google Drive\Travel and Adventure\Everything from Jona's gopro\100GOPRO\Forest with a bike\To code\start the bike.MP4" -r 119.88 -vcodec mpeg2video -pix_fmt yuv422p -intra -qscale 1 -qmin 1 -acodec mp2 -ar 48000 -ab 384k -threads 8 -y "E:\Users\User\Google Drive\Travel and Adventure\Everything from Jona's gopro\100GOPRO\Forest with a bike\To code\coded\start the bike.mp4"
FFmbc version 0.7-rc7
Copyright (c) 2008-2012 Baptiste Coudurier and the FFmpeg developers
Input #0, mov,mp4,m4a,3gp,3g2,mj2, from 'E:\Users\User\Google Drive\Travel and Adventure\Everything from Jona's gopro\100GOPRO\Forest with a bike\To code\start the bike.MP4':
Metadata:
major_brand: mp41
minor_version: 538120216
compatible_brands: mp41
creation_time: 2019-08-22 15:04:20
Duration: 00:01:33.56, start: 0.000000, bitrate: 60283 kb/s
Stream #0.0(eng): Video: h264 (High), yuvj420p, 1920x1080p [PAR 1:1 DAR 16:9], 60026 kb/s, 119.88 fps
Metadata:
codec_name: GoPro AVC encoder
Stream #0.1(eng): Audio: aac, 48000 Hz, stereo, s16, 189 kb/s
Stream #0.2(eng): Data: unknown (gpmd), 33 kb/s
Stream #0.3(eng): Data: unknown (fdsc), 21 kb/s
E:\Users\User\Google Drive\Travel and Adventure\Everything from Jona's gopro\100GOPRO\Forest with a bike\To code\coded\start the bike.mp4: Permission denied

Thank you in advance!]]>
Miscellaneous Sat, 31 Aug 2019 10:26:20 +0000
Use of beta software for beginners - by: hugly https://www.lwks.com/index.php?option=com_kunena&func=view&catid=20&id=203866&limit=15&limitstart=15&Itemid=81#203866 https://www.lwks.com/index.php?option=com_kunena&func=view&catid=20&id=203866&limit=15&limitstart=15&Itemid=81#203866 Moderated: This argument arose as part of a discussion about poor video playback. It derailed the thread and accordingly I have split it out into it's own topic. The original thread is here - jwrl.


jwrl wrote:
Just reinforcing schrauber's post: there has been a significant list of bugs found in the various beta builds 14.6. That's not surprising - that's what the beta program is intended to find. It's not intended to be a means of giving people a chance to be first with the latest.

Beta software is not good software to learn on because it isn't guaranteed to be stable. You should definitely not use any beta version if you want to learn Lightworks.


I just tested it again and this banner is still showing up:



On the banner the beta is called a "New Test Version" and it tells about "incredible new features", but nothing about issues and reporting on beta forums.

To me that sounds as if Editshare wants users, new or not, to run the beta version? If so, as a moderator, is it prudent to argue against it?]]>
Miscellaneous Fri, 23 Aug 2019 23:31:30 +0000
quick reply - by: figmo124 https://www.lwks.com/index.php?option=com_kunena&func=view&catid=20&id=203650&Itemid=81#203650 https://www.lwks.com/index.php?option=com_kunena&func=view&catid=20&id=203650&Itemid=81#203650 I tried it once and most of my comment was omitted. (Not quick enough, I guess)]]> Miscellaneous Wed, 21 Aug 2019 02:24:23 +0000